Tuesday, December 2, 2014

NEW: Guns N Roses live in London 2012 - 1DualLayer - pro-shot - with Izzy

Guns N' Roses
2012-05-31
O2 Arena
London
UK

Linage:
1080i.ts @dime > XMedia Recode to rip n' split > DVDStyler to menu


Audio: A+
Video: A+


Vídeo
ID                                       : 224 (0xE0)
Format                                   : MPEG Video
Format version                           : Version 2
Format profile                           : Main@Main
Format settings, BVOP                    : Sim
Format settings, Matrix                  : Padrão
Format settings, GOP                     : M=3, N=12
Duration                                 : 6mn 14s
Bit rate mode                            : Variável
Bit rate                                 : 22.3 Mbps
Maximum bit rate                         : 9 000 Kbps
Width                                    : 720 pixels
Height                                   : 480 pixels
Display aspect ratio                     : 4:3
Frame rate                               : 29.970 fps
Standard                                 : NTSC
Color space                              : YUV
Chroma subsampling                       : 4:2:0
Bit depth                                : 8 bits
Scan type                                : Progressivo
Bits/(Pixel*Frame)                       : 2.151
Stream size                              : 993 MiB (97%)

Áudio
ID                                       : 189 (0xBD)-128 (0x80)
Format                                   : AC-3
Format/Info                              : Audio Coding 3
Mode extension                           : CM (complete main)
Muxing mode                              : DVD-Video
Duration                                 : 6mn 14s
Bit rate mode                            : Constante
Bit rate                                 : 224 Kbps
Channel(s)                               : 2 canais
Channel positions                        : Front: L R
Sampling rate                            : 48.0 KHz
Bit depth                                : 16 bits
Stream size                              : 9.99 MiB (1%)



Tracklist:
01. Chinese Democracy
02. Welcome To The Jungle
03. It’s So Easy
04. Mr. Brownstone
05. Sorry
06. Rocket Queen
07. Estranged
08. Better
09. 14 Years (with Izzy Stradlin)
10. Live And Let Die
11. This I Love
12. Shackler’s Revenge,
13. Street Of Dreams
14. You Could Be Mine (with Izzy Stradlin)
15. Sweet Child O’ Mine
16. Jam (Another Brick In The Wall: Part 2)
17. Axl Piano Solo (Someone Saved My Life Tonight/Goodbye Yellow Brock Road)
18. November Rain
19. Don’t Cry
20. Civil War
21. Dead Flowers (with Izzy Stradlin)
22. Knockin’ On Heaven’s Door (with Izzy Stradlin)
23. Nightrain (with Izzy Stradlin)
24. Paradise City (with Izzy Stradlin)

Download part 1 here
Download part 2 here
Download part 3 here
Download part 4 here
Download part 5 here