Monday, May 15, 2017

NEW: Guns N Roses live in New York 1988 - 1DVD - February 2 - pro-shot

Guns N' Roses - 1988-02-02 - The Ritz, New York, NY [FZill/Falaaee] [PRO]

The original and great release by Will unfortunately have some sync issues (on the remixed track) and I decided to fix it.
Here is the final version properly synced and authored with new menus that I did.

Band name: Guns N' Roses
Date: February 2, 1988
Venue: The Ritz
Location: New York, New York, USA
Media: 1 DVD5
Version: FZill/Falaaee
Filming type: Professional
Generation: Low
Lineage: Low gen VHS > SA > PC(+ LPCM audio from silver CD)
Video format: NTSC
Aspect ratio: 4:3
Total running time: 69 min.
Video quality: B+
Audio quality: A-
Track listing:

Intro
It's So Easy
Mr. Brownstone
Out Ta Get Me
Sweet Child O' Mine
My Michelle
Knockin' On Heaven's Door
Welcome To The Jungle
Nightrain
Paradise City
Mama Kin
Rocket Queen

Transferred by: Will
Mixed by: Will
Remixed by: FZill/Falaaee
Authored by: FZill/Falaaee
Chapters: Yes
Menus: Yes
Menu artwork by: FZill/Falaaee
Number of camera angles: Multiple
Number of audio selections: 2

Video
ID                          : 224 (0xE0)
Format                      : MPEG Video
Format version              : Version 2
Format profile              : Main@Main
Format settings, BVOP       : Yes
Format settings, Matrix     : Default
Format settings, GOP        : M=3, N=15
Format settings, picture st : Frame
Duration                    : 19mn 54s
Bit rate mode               : Variable
Bit rate                    : 3 974 Kbps
Maximum bit rate            : 9 586 Kbps
Width                       : 704 pixels
Height                      : 480 pixels
Display aspect ratio        : 4:3
Frame rate                  : 29.970 fps
Standard                    : NTSC
Color space                 : YUV
Chroma subsampling          : 4:2:0
Bit depth                   : 8 bits
Scan type                   : Interlaced
Scan order                  : Top Field First
Compression mode            : Lossy
Bits/(Pixel*Frame)          : 0.392
Time code of first frame    : 00:19:49:00
Time code source            : Group of pictures header
GOP, Open/Closed            : Open
Stream size                 : 566 MiB (55%)
Color primaries             : BT.601 NTSC
Transfer characteristics    : BT.601
Matrix coefficients         : BT.601

Audio #1
ID                          : 189 (0xBD)-160 (0xA0)
Format                      : PCM
Format settings, Endianness : Big
Format settings, Sign       : Signed
Muxing mode                 : DVD-Video
Duration                    : 19mn 54s
Bit rate mode               : Constant
Bit rate                    : 1 536 Kbps
Channel(s)                  : 2 channels
Sampling rate               : 48.0 KHz
Bit depth                   : 16 bits
Delay relative to video     : -630ms
Stream size                 : 219 MiB (21%)

Audio #2
ID                          : 189 (0xBD)-161 (0xA1)
Format                      : PCM
Format settings, Endianness : Big
Format settings, Sign       : Signed
Muxing mode                 : DVD-Video
Duration                    : 19mn 54s
Bit rate mode               : Constant
Bit rate                    : 1 536 Kbps
Channel(s)                  : 2 channels
Sampling rate               : 48.0 KHz
Bit depth                   : 16 bits
Delay relative to video     : -640ms
Stream size                 : 219 MiB (21%)

Download part 1 here
Download part 2 here
Download part 3 here
Download part 4 here
                 

No comments:

Post a Comment